| 首页 | 天博体育官网登录界面电影 | 最新公告 | 天博体育官网登录界面播放机 | 代拷硬盘 | 会员专区 | 联系方式 | 付款方式 | 服务条款 | 设为首页 | 收藏本站 | 



查看影片 长津湖之水门桥 水门桥 长津湖2 三炸水门桥 长津湖(下)1080p+【4K60fps】+ 【4K 杜比视界 需设备支持否则会偏色】mkv(33.2GB)[剧情历史战争 2022年 中国大陆·中国香港]() 详细信息介绍
影片类型
战争 历史 剧情 4K极致影音 4K蓝光 杜比视界 (Dolby Vision)
影片属性
4K 4K蓝光 杜比视界 (Dolby Vision) 电影
影片编号
IMDB评分
0
首映日期
影片片源
4K极致影音,港台,国产
文件格式
MKV
分辨率
3840*2160P
视频编码
音频编码
容量大小
33.2GB
出品年代
2022
字幕
中文
支持PS3
不支持PS3
碟数
3碟
更新日期
2022-4-28
人气
2
影片画质
对白语言
国语
影片评分
备注信息
影片预览
影片简介

长津湖之水门桥 / 水门桥 / 长津湖2 / 三炸水门桥 / 长津湖(下)


◎译  名 Water Gate Bridge / 水门桥 / 长津湖2 / 三炸水门桥 / 长津湖(下) / Watergate Bridge / The Battle At Lake Changjin II
◎片  名 长津湖之水门桥
◎年  代 2022
◎产  地 中国大陆 / 中国香港
◎类  别 剧情 / 历史 / 战争
◎语  言 汉语普通话
◎上映日期 2022-02-01(中国大陆)
◎IMDb评星  ★★★★★☆☆☆☆☆
◎IMDb评分  4.9/10 from 328 users
◎IMDb链接  https://www.imdb.com/title/tt16194408/
◎豆瓣评星 ★★★✦☆
◎豆瓣评分 7.2/10 from 243,716 users
◎豆瓣链接 https://movie.douban.com/subject/35613853/
◎片  长 149分钟
◎导  演 徐克 / Hark Tsui
◎演  员 吴京 / Jing Wu | 饰 伍千里
      易烊千玺 / Jackson Yee | 饰 伍万里
      朱亚文 / Yawen Zhu | 饰 梅生
      李晨 / Chen Li | 饰 余从戎
      韩东君 / Elvis Han | 饰 平河
      张涵予 / Hanyu Zhang | 饰 宋时轮
      耿乐 / Le Geng | 饰 老杨 / 杨营长
      杜淳 / Chun Du | 饰 张营长
      段奕宏 / Yihong Duan | 饰 谈子为
      胡军 / Jun Hu | 饰 雷公 / 雷睢生
      王丽坤 / Likun Wang | 饰 梅生妻子
      杨一威 / Yiwei Yang | 饰 何长贵
      李卓扬 / Zhuoyang Li | 饰 李持正
      何跃飞 / Yuefei He | 饰 广福生
      唐志强 / Zhiqiang Tang | 饰 周捷行
      刘治威 / Zhiwei Liu | 饰 奇天行
      庄小龙 / Xiaolong Zhuang | 饰 杨文健
      辛玉波 / Yubo Xin | 饰 尹海峰
      张跃 / Yue Zhang | 饰 刘志毅
      许明虎 / Tiger Xu | 饰 沈海龙
      王宁 / Ning Wang | 饰 张师长
      王振威 / Zhenwei Wang | 饰 吴秋生
      陈泽轩 / Zexuan Chen | 饰 田向南
      李小锋 / Xiaofeng Li | 饰 钟定一
      詹姆斯·菲尔伯德 / James Filbird | 饰 道格拉斯·麦克阿瑟
      约翰·克鲁兹 / John Cruz | 饰 史密斯少将
      史磊 / Lei Shi | 饰 彭德清
      胡学良 / Xueliang Hu | 饰 宋庆生
      贺广治 /  Guangzhi He | 饰 古沧州
      黄晓航 / Xiaohang Huang | 饰 魏前进
      曹敖日格勒 | 饰 望丁
      章小磊 / Xiaolei Zhang | 饰 宣强
      宋玉臣 / Yuechen Song | 饰 梁有地 / 梁实
      张志坤 / Zhikun Zhang | 饰 高大山
◎编  剧 兰晓龙 / Xiaolong Lan
      黄建新 / Jianxin Huang
◎制  片  人 于冬 / Dong Yu
      刘绍勇
      黄建新 / Jianxin Huang
      陈红 / Hong Chen
      施南生 / Nansun Shi
      梁凤英 / Candy Leung
      陈凯歌 / Kaige Chen
      徐克 / Hark Tsui
      林超贤 / Dante Lam
      蒋德富 / Defu Jiang
      曲吉小江 / Xiaojiang Quji
◎音  乐 王之一 / Zhiyi Wang
      梁皓一
      李野
◎摄  影 罗攀 / Pan Luo
      高虎 / Hu Gao
      谢忠道 / Kenny Tse
      鲍德熹 / Peter Pau
      黄永恒 / Wing-Hung Wong
      丁豫 / Yu Ding
◎美  术 张和平 / Heping Zhang
      霍廷霄 / Tingxiao Huo
      陆苇 / Wei Lu
      林伟健
      何志恒
◎音  效 史蒂夫·伯吉斯 / Steve Burgess
      王丹戎 / Danrong Wang
◎动作特技 林峰 / Feng Lin
      董玮 / Wai Tung
      杨帅 / Shuai Yang
◎其  它 王树增 / Wang Shuzeng
      舞当派 / wutungpai

◎简  介 

  电影以抗美援朝战争第二次战役中的长津湖战役为背景,讲述了在结束了新兴里和下碣隅里的战斗之后,七连战士们又接到了更艰巨的任务……

引用

General
Complete name                  : C:\Users\xu\Downloads\长津湖之水门桥.The.Battle.at.Lake.Changjin.II.2022.1080p.WEB-DL.AAC.H264-HDSWEB.mp4
Format                         : MPEG-4
Format profile                 : Base Media
Codec ID                       : isom (isom/iso2/avc1/mp41)
File size                      : 7.42 GiB
Duration                       : 2 h 28 min
Overall bit rate mode          : Variable
Overall bit rate               : 7 134 kb/s
Writing application            : OurTV Multimedia Platform

Video
ID                             : 1
Format                         : AVC
Format/Info                    : Advanced Video Codec
Format profile                 : High@L4
Format settings                : CABAC / 2 Ref Frames
Format settings, CABAC         : Yes
Format settings, Reference fra : 2 frames
Format settings, GOP           : M=3, N=50
Codec ID                       : avc1
Codec ID/Info                  : Advanced Video Coding
Duration                       : 2 h 28 min
Source duration                : 2 h 28 min
Bit rate mode                  : Constant
Bit rate                       : 7 001 kb/s
Width                          : 1 920 pixels
Height                         : 1 080 pixels
Display aspect ratio           : 16:9
Frame rate mode                : Constant
Frame rate                     : 25.000 FPS
Color space                    : YUV
Chroma subsampling             : 4:2:0
Bit depth                      : 8 bits
Scan type                      : Progressive
Bits/(Pixel*Frame)             : 0.135
Stream size                    : 6.99 GiB (94%)
Source stream size             : 7.28 GiB (98%)
Color range                    : Limited
Color primaries                : BT.709
Transfer characteristics       : BT.709
Matrix coefficients            : BT.709
mdhd_Duration                  : 8937643
Codec configuration box        : avcC

Audio
ID                             : 2
Format                         : AAC LC
Format/Info                    : Advanced Audio Codec Low Complexity
Codec ID                       : mp4a-40-2
Duration                       : 2 h 28 min
Bit rate mode                  : Variable
Bit rate                       : 125 kb/s
Maximum bit rate               : 129 kb/s / 129 kb/s
Channel(s)                     : 2 channels
Channel layout                 : L R
Sampling rate                  : 48.0 kHz
Frame rate                     : 46.875 FPS (1024 SPF)
Compression mode               : Lossy
Stream size                    : 134 MiB (2%)
Default                        : Yes
Alternate group                : 1

 

 

 

长津湖之水门桥 *60fps* 国语 中英文字幕


◎译  名 Water Gate Bridge / 水门桥 / 长津湖2 / 三炸水门桥 / 长津湖(下) / Watergate Bridge / The Battle At Lake Changjin II
◎片  名 长津湖之水门桥
◎年  代 2022
◎产  地 中国大陆 / 中国香港
◎类  别 剧情 / 历史 / 战争
◎语  言 汉语普通话
◎上映日期 2022-02-01(中国大陆)
◎IMDb评星  ★★★★★☆☆☆☆☆
◎IMDb评分  4.9/10 from 331 users
◎IMDb链接  https://www.imdb.com/title/tt16194408/
◎豆瓣评星 ★★★✦☆
◎豆瓣评分 7.2/10 from 244,622 users
◎豆瓣链接 https://movie.douban.com/subject/35613853/
◎片  长 149分钟
◎导  演 徐克 / Hark Tsui
◎演  员 吴京 / Jing Wu | 饰 伍千里
      易烊千玺 / Jackson Yee | 饰 伍万里
      朱亚文 / Yawen Zhu | 饰 梅生
      李晨 / Chen Li | 饰 余从戎
      韩东君 / Elvis Han | 饰 平河
      张涵予 / Hanyu Zhang | 饰 宋时轮
      耿乐 / Le Geng | 饰 老杨 / 杨营长
      杜淳 / Chun Du | 饰 张营长
      段奕宏 / Yihong Duan | 饰 谈子为
      胡军 / Jun Hu | 饰 雷公 / 雷睢生
      王丽坤 / Likun Wang | 饰 梅生妻子
      杨一威 / Yiwei Yang | 饰 何长贵
      李卓扬 / Zhuoyang Li | 饰 李持正
      何跃飞 / Yuefei He | 饰 广福生
      唐志强 / Zhiqiang Tang | 饰 周捷行
      刘治威 / Zhiwei Liu | 饰 奇天行
      庄小龙 / Xiaolong Zhuang | 饰 杨文健
      辛玉波 / Yubo Xin | 饰 尹海峰
      张跃 / Yue Zhang | 饰 刘志毅
      许明虎 / Tiger Xu | 饰 沈海龙
      王宁 / Ning Wang | 饰 张师长
      王振威 / Zhenwei Wang | 饰 吴秋生
      陈泽轩 / Zexuan Chen | 饰 田向南
      李小锋 / Xiaofeng Li | 饰 钟定一
      詹姆斯·菲尔伯德 / James Filbird | 饰 道格拉斯·麦克阿瑟
      约翰·克鲁兹 / John Cruz | 饰 史密斯少将
      史磊 / Lei Shi | 饰 彭德清
      胡学良 / Xueliang Hu | 饰 宋庆生
      贺广治 /  Guangzhi He | 饰 古沧州
      黄晓航 / Xiaohang Huang | 饰 魏前进
      曹敖日格勒 | 饰 望丁
      章小磊 / Xiaolei Zhang | 饰 宣强
      宋玉臣 / Yuechen Song | 饰 梁有地 / 梁实
      张志坤 / Zhikun Zhang | 饰 高大山
◎编  剧 兰晓龙 / Xiaolong Lan
      黄建新 / Jianxin Huang
◎制  片  人 于冬 / Dong Yu
      刘绍勇
      黄建新 / Jianxin Huang
      陈红 / Hong Chen
      施南生 / Nansun Shi
      梁凤英 / Candy Leung
      陈凯歌 / Kaige Chen
      徐克 / Hark Tsui
      林超贤 / Dante Lam
      蒋德富 / Defu Jiang
      曲吉小江 / Xiaojiang Quji
      吴京 / Jing Wu
◎音  乐 王之一 / Zhiyi Wang
      梁皓一
      李野
◎摄  影 罗攀 / Pan Luo
      高虎 / Hu Gao
      谢忠道 / Kenny Tse
      鲍德熹 / Peter Pau
      黄永恒 / Wing-Hung Wong
      丁豫 / Yu Ding
◎美  术 张和平 / Heping Zhang
      霍廷霄 / Tingxiao Huo
      陆苇 / Wei Lu
      林伟健
      何志恒
◎音  效 史蒂夫·伯吉斯 / Steve Burgess
      王丹戎 / Danrong Wang
◎动作特技 林峰 / Feng Lin
      董玮 / Wai Tung
      杨帅 / Shuai Yang
◎其  它 王树增 / Wang Shuzeng
      舞当派 / wutungpai

◎简  介 

  电影以抗美援朝战争第二次战役中的长津湖战役为背景,讲述了在结束了新兴里和下碣隅里的战斗之后,七连战士们又接到了更艰巨的任务……

引用

General
Unique ID                      : 109583736858946544940082406156341602941 (0x52710F5DB261332DCD890566A53BEA7D)
Complete name                  : The Battle At Lake Changjin II 2022 WEB-DL 60fps 10bit 4K H265 AAC-Dave.mkv
Format                         : Matroska
Format version                 : Version 4
File size                      : 11.3 GiB
Duration                       : 2 h 28 min
Overall bit rate               : 10.9 Mb/s
Encoded date                   : UTC 2022-04-29 09:22:10
Writing application            : mkvmerge v63.0.0 ('Everything') 64-bit
Writing library                : libebml v1.4.2 + libmatroska v1.6.4

Video
ID                             : 1
Format                         : HEVC
Format/Info                    : High Efficiency Video Coding
Format profile                 : Main 10@L5.1@Main
Codec ID                       : V_MPEGH/ISO/HEVC
Duration                       : 2 h 28 min
Bit rate                       : 10.6 Mb/s
Width                          : 3 840 pixels
Height                         : 1 636 pixels
Display aspect ratio           : 2.35:1
Frame rate mode                : Constant
Frame rate                     : 60.000 FPS
Color space                    : YUV
Chroma subsampling             : 4:2:0
Bit depth                      : 10 bits
Bits/(Pixel*Frame)             : 0.028
Stream size                    : 11.1 GiB (98%)
Default                        : Yes
Forced                         : No
Color range                    : Limited
Color primaries                : BT.709
Transfer characteristics       : BT.709
Matrix coefficients            : BT.709

Audio
ID                             : 2
Format                         : AAC LC
Format/Info                    : Advanced Audio Codec Low Complexity
Codec ID                       : A_AAC-2
Duration                       : 2 h 28 min
Bit rate                       : 253 kb/s
Channel(s)                     : 2 channels
Channel layout                 : L R
Sampling rate                  : 48.0 kHz
Frame rate                     : 46.875 FPS (1024 SPF)
Compression mode               : Lossy
Stream size                    : 270 MiB (2%)
Default                        : Yes
Forced                         : No

 

 

 

 

 

 

长津湖之水门桥 *杜比视界影片,需设备支持否则会偏色* [国语] [中英文字幕]


◎译  名 Water Gate Bridge / 水门桥 / 长津湖2 / 三炸水门桥 / 长津湖(下) / Watergate Bridge / The Battle At Lake Changjin II
◎片  名 长津湖之水门桥
◎年  代 2022
◎产  地 中国大陆 / 中国香港
◎类  别 剧情 / 历史 / 战争
◎语  言 汉语普通话
◎上映日期 2022-02-01(中国大陆)
◎IMDb评星  ★★★★★☆☆☆☆☆
◎IMDb评分  4.9/10 from 331 users
◎IMDb链接  https://www.imdb.com/title/tt16194408/
◎豆瓣评星 ★★★✦☆
◎豆瓣评分 7.2/10 from 244,622 users
◎豆瓣链接 https://movie.douban.com/subject/35613853/
◎片  长 149分钟
◎导  演 徐克 / Hark Tsui
◎演  员 吴京 / Jing Wu | 饰 伍千里
      易烊千玺 / Jackson Yee | 饰 伍万里
      朱亚文 / Yawen Zhu | 饰 梅生
      李晨 / Chen Li | 饰 余从戎
      韩东君 / Elvis Han | 饰 平河
      张涵予 / Hanyu Zhang | 饰 宋时轮
      耿乐 / Le Geng | 饰 老杨 / 杨营长
      杜淳 / Chun Du | 饰 张营长
      段奕宏 / Yihong Duan | 饰 谈子为
      胡军 / Jun Hu | 饰 雷公 / 雷睢生
      王丽坤 / Likun Wang | 饰 梅生妻子
      杨一威 / Yiwei Yang | 饰 何长贵
      李卓扬 / Zhuoyang Li | 饰 李持正
      何跃飞 / Yuefei He | 饰 广福生
      唐志强 / Zhiqiang Tang | 饰 周捷行
      刘治威 / Zhiwei Liu | 饰 奇天行
      庄小龙 / Xiaolong Zhuang | 饰 杨文健
      辛玉波 / Yubo Xin | 饰 尹海峰
      张跃 / Yue Zhang | 饰 刘志毅
      许明虎 / Tiger Xu | 饰 沈海龙
      王宁 / Ning Wang | 饰 张师长
      王振威 / Zhenwei Wang | 饰 吴秋生
      陈泽轩 / Zexuan Chen | 饰 田向南
      李小锋 / Xiaofeng Li | 饰 钟定一
      詹姆斯·菲尔伯德 / James Filbird | 饰 道格拉斯·麦克阿瑟
      约翰·克鲁兹 / John Cruz | 饰 史密斯少将
      史磊 / Lei Shi | 饰 彭德清
      胡学良 / Xueliang Hu | 饰 宋庆生
      贺广治 /  Guangzhi He | 饰 古沧州
      黄晓航 / Xiaohang Huang | 饰 魏前进
      曹敖日格勒 | 饰 望丁
      章小磊 / Xiaolei Zhang | 饰 宣强
      宋玉臣 / Yuechen Song | 饰 梁有地 / 梁实
      张志坤 / Zhikun Zhang | 饰 高大山
◎编  剧 兰晓龙 / Xiaolong Lan
      黄建新 / Jianxin Huang
◎制  片  人 于冬 / Dong Yu
      刘绍勇
      黄建新 / Jianxin Huang
      陈红 / Hong Chen
      施南生 / Nansun Shi
      梁凤英 / Candy Leung
      陈凯歌 / Kaige Chen
      徐克 / Hark Tsui
      林超贤 / Dante Lam
      蒋德富 / Defu Jiang
      曲吉小江 / Xiaojiang Quji
      吴京 / Jing Wu
◎音  乐 王之一 / Zhiyi Wang
      梁皓一
      李野
◎摄  影 罗攀 / Pan Luo
      高虎 / Hu Gao
      谢忠道 / Kenny Tse
      鲍德熹 / Peter Pau
      黄永恒 / Wing-Hung Wong
      丁豫 / Yu Ding
◎美  术 张和平 / Heping Zhang
      霍廷霄 / Tingxiao Huo
      陆苇 / Wei Lu
      林伟健
      何志恒
◎音  效 史蒂夫·伯吉斯 / Steve Burgess
      王丹戎 / Danrong Wang
◎动作特技 林峰 / Feng Lin
      董玮 / Wai Tung
      杨帅 / Shuai Yang
◎其  它 王树增 / Wang Shuzeng
      舞当派 / wutungpai

◎简  介 

  电影以抗美援朝战争第二次战役中的长津湖战役为背景,讲述了在结束了新兴里和下碣隅里的战斗之后,七连战士们又接到了更艰巨的任务……

 


引用


General
Complete name                  : The Battle At Lake Changjin II DoVi 2022 WEB-DL 4K H265 AAC-Dave.mp4
Format                         : MPEG-4
Format profile                 : Base Media
Codec ID                       : isom (isom/dby1/iso2/mp41)
File size                      : 14.6 GiB
Duration                       : 2 h 28 min
Overall bit rate mode          : Variable
Overall bit rate               : 14.0 Mb/s
Writing application            : Lavf59.16.100

Video
ID                             : 1
Format                         : HEVC
Format/Info                    : High Efficiency Video Coding
Format profile                 : Main 10@L5@Main
HDR format                     : Dolby Vision, Version 1.0, dvhe.05.06, BL+RPU
Codec ID                       : hev1
Codec ID/Info                  : High Efficiency Video Coding
Duration                       : 2 h 28 min
Bit rate                       : 13.8 Mb/s
Width                          : 3 840 pixels
Height                         : 1 640 pixels
Display aspect ratio           : 2.35:1
Frame rate mode                : Constant
Frame rate                     : 24.000 FPS
Color space                    : YUV
Chroma subsampling             : 4:2:0
Bit depth                      : 10 bits
Bits/(Pixel*Frame)             : 0.091
Stream size                    : 14.3 GiB (98%)
Color range                    : Full
Codec configuration box        : hvcC+dvcC

Audio
ID                             : 2
Format                         : AAC LC
Format/Info                    : Advanced Audio Codec Low Complexity
Codec ID                       : mp4a-40-2
Duration                       : 2 h 28 min
Bit rate mode                  : Variable
Bit rate                       : 253 kb/s
Maximum bit rate               : 256 kb/s / 256 kb/s
Channel(s)                     : 2 channels
Channel layout                 : L R
Sampling rate                  : 48.0 kHz
Frame rate                     : 46.875 FPS (1024 SPF)
Compression mode               : Lossy
Stream size                    : 270 MiB (2%)
Default                        : Yes
Alternate group                : 1